<?xml version="1.0" encoding="UTF-8"?><svg xmlns="http://www.w3.org/2000/svg" xmlns:xlink="http://www.w3.org/1999/xlink" contentScriptType="text/ecmascript" zoomAndPan="magnify" contentStyleType="text/css" enable-background="new 0 0 1206 637.906" version="1.1" width="500.0" xml:space="preserve" preserveAspectRatio="xMidYMid meet" viewBox="28.578 35.365 85.862 66.983" height="390.06198" x="0px" y="0px"><font horiz-adv-x="2048"><!-- Helvetica is a registered trademark of Linotype AG --><!-- Copyright: Copyright 2025 Adobe System Incorporated. All rights reserved. --><font-face font-family="Helvetica" units-per-em="2048" underline-position="-155" underline-thickness="101"/><missing-glyph horiz-adv-x="1298" d="M66,0l0,1469l1166,0l0,-1469M1048,184l0,1101l-798,0l0,-1101z"/><glyph unicode=" " horiz-adv-x="569"/><glyph unicode="&amp;" horiz-adv-x="1366" d="M716,1007C755,1052 775,1103 775,1158C775,1201 761,1239 732,1270C703,1301 665,1317 616,1317C542,1317 491,1292 462,1243C447,1218 440,1190 440,1160C440,1119 451,1080 474,1043C496,1006 533,957 585,898C648,943 692,979 716,1007M853,289l-332,405C427,631 366,583 337,550C293,500 271,439 271,367C271,289 300,229 357,187C414,145 474,124 539,124C613,124 677,141 730,175C783,209 824,247 853,289M265,1138C265,1233 297,1311 361,1374C425,1436 511,1467 618,1467C720,1467 800,1438 857,1380C914,1322 943,1253 943,1172C943,1078 913,996 854,925C819,884 761,836 680,782l268,-320C966,515 979,555 986,582C993,608 1000,645 1007,692l171,0C1167,598 1144,508 1110,422C1076,335 1059,300 1059,317l261,-317l-232,0l-138,168C895,109 845,65 800,38C721,-10 629,-34 526,-34C373,-34 262,7 193,90C124,172 89,265 89,368C89,479 123,572 190,647C231,692 308,749 421,817C359,888 318,948 297,997C276,1046 265,1093 265,1138z"/><glyph unicode="0" horiz-adv-x="1139" d="M956,1203C1020,1085 1052,923 1052,718C1052,523 1023,362 965,235C881,52 744,-39 553,-39C381,-39 253,36 169,185C99,310 64,477 64,687C64,850 85,989 127,1106C206,1323 348,1432 554,1432C739,1432 873,1356 956,1203M858,711C858,874 838,1008 798,1113C758,1218 680,1270 565,1270C459,1270 382,1220 333,1121C284,1021 259,874 259,680C259,534 275,417 306,328C354,193 436,125 552,125C645,125 720,166 775,249C830,332 858,486 858,711z"/><glyph unicode="1" horiz-adv-x="1139" d="M196,1014l0,138C326,1165 417,1186 468,1216C519,1245 558,1315 583,1426l142,0l0,-1426l-192,0l0,1014z"/><glyph unicode="2" horiz-adv-x="1139" d="M400,571l192,111C678,732 738,775 773,810C828,865 855,929 855,1000C855,1083 830,1150 780,1199C730,1248 663,1272 580,1272C457,1272 371,1225 324,1132C299,1082 285,1013 282,924l-183,0C101,1049 124,1150 168,1229C246,1368 384,1437 581,1437C745,1437 865,1393 941,1304C1016,1215 1054,1117 1054,1008C1054,893 1014,795 933,714C886,667 803,609 682,542l-137,-76C480,430 428,396 391,363C324,305 282,241 265,170l782,0l0,-170l-983,0C71,123 96,231 141,322C185,413 271,496 400,571z"/><glyph unicode="3" horiz-adv-x="1139" d="M49,440l188,0C245,347 262,280 289,238C336,163 420,125 542,125C637,125 713,150 770,201C827,252 856,317 856,397C856,496 826,565 766,604C705,643 621,663 514,663C502,663 490,663 478,663C465,662 453,662 440,661l0,159C459,818 474,817 487,816C500,815 513,815 528,815C595,815 651,826 694,847C770,884 808,951 808,1047C808,1118 783,1173 732,1212C681,1251 622,1270 555,1270C435,1270 352,1230 306,1150C281,1106 266,1043 263,962l-178,0C85,1069 106,1159 149,1234C222,1367 351,1434 536,1434C682,1434 795,1402 875,1337C955,1272 995,1177 995,1054C995,966 971,895 924,840C895,806 857,779 810,760C885,739 944,700 987,641C1029,582 1050,509 1050,424C1050,287 1005,176 915,90C825,4 697,-39 532,-39C363,-39 240,8 164,101C87,194 49,307 49,440z"/><glyph unicode="4" horiz-adv-x="1139" d="M677,507l0,649l-459,-649M680,0l0,350l-628,0l0,176l656,910l152,0l0,-929l211,0l0,-157l-211,0l0,-350z"/><glyph unicode="5" horiz-adv-x="1139" d="M253,365C265,262 313,191 396,152C439,132 488,122 544,122C651,122 730,156 781,224C832,292 858,367 858,450C858,550 828,627 767,682C706,737 632,764 547,764C485,764 432,752 388,728C343,704 305,671 274,628l-156,9l109,771l744,0l0,-174l-609,0l-61,-398C334,861 366,880 396,893C449,915 511,926 581,926C712,926 824,884 915,799C1006,714 1052,607 1052,477C1052,342 1010,222 927,119C843,16 709,-36 526,-36C409,-36 306,-3 217,63C127,128 77,229 66,365z"/><glyph unicode="6" horiz-adv-x="1139" d="M1028,1057l-178,0C839,1114 822,1158 799,1190C756,1250 690,1280 602,1280C501,1280 421,1234 362,1141C303,1048 270,914 263,741C304,802 356,847 419,877C476,904 540,917 611,917C731,917 836,879 925,802C1014,725 1059,611 1059,459C1059,329 1017,214 932,114C847,13 727,-37 570,-37C436,-37 320,14 223,116C126,217 77,388 77,629C77,807 99,958 142,1082C225,1319 378,1438 599,1438C759,1438 871,1397 934,1314C997,1231 1028,1145 1028,1057M869,444C869,517 848,587 806,654C764,720 688,753 577,753C500,753 432,727 374,676C315,625 286,547 286,444C286,353 313,277 366,216C419,154 492,123 586,123C681,123 752,155 799,219C846,282 869,357 869,444z"/><glyph unicode="7" horiz-adv-x="1139" d="M1071,1408l0,-157C1025,1206 964,1129 888,1018C811,907 744,788 685,660C627,535 583,422 553,319C534,253 509,147 478,0l-199,0C324,273 424,545 579,816C670,975 766,1112 867,1227l-792,0l0,181z"/><glyph unicode="8" horiz-adv-x="1139" d="M810,1057C810,1110 789,1159 746,1204C703,1249 638,1271 551,1271C464,1271 402,1249 363,1204C324,1159 305,1107 305,1047C305,980 330,927 380,889C430,851 489,832 557,832C636,832 698,854 743,899C788,943 810,996 810,1057M858,392C858,485 830,555 773,603C716,651 644,675 555,675C469,675 399,651 345,602C290,553 263,485 263,398C263,323 288,259 338,205C387,150 464,123 568,123C651,123 721,146 776,191C831,236 858,303 858,392M195,838C142,891 116,961 116,1046C116,1153 155,1244 232,1321C309,1398 419,1436 561,1436C698,1436 806,1400 884,1328C962,1255 1001,1171 1001,1074C1001,985 978,912 933,857C908,826 868,795 815,765C874,738 921,706 955,671C1018,604 1050,518 1050,411C1050,285 1008,178 923,91C838,3 719,-41 564,-41C425,-41 307,-3 211,73C114,148 66,258 66,402C66,487 87,560 128,622C169,683 231,730 312,763C262,784 223,809 195,838z"/><glyph unicode="9" horiz-adv-x="1139" d="M272,346C277,247 316,178 387,140C424,120 465,110 511,110C597,110 670,146 731,218C792,289 835,435 860,654C820,591 771,546 712,521C653,495 589,482 521,482C383,482 274,525 194,611C113,697 73,808 73,943C73,1073 113,1187 192,1286C271,1385 388,1434 543,1434C752,1434 896,1340 975,1152C1019,1049 1041,919 1041,764C1041,589 1015,433 962,298C875,73 727,-40 518,-40C378,-40 272,-3 199,70C126,143 90,235 90,346M829,957C829,1062 803,1141 750,1193C697,1244 629,1270 547,1270C459,1270 389,1241 338,1182C286,1123 260,1044 260,945C260,852 283,778 328,723C373,668 446,640 545,640C616,640 682,664 741,711C800,758 829,840 829,957z"/><glyph unicode="P" horiz-adv-x="1366" d="M175,1469l661,0C967,1469 1072,1432 1152,1359C1232,1285 1272,1181 1272,1048C1272,933 1236,834 1165,749C1094,664 984,621 836,621l-462,0l0,-621l-199,0M951,1267C907,1288 847,1298 770,1298l-396,0l0,-509l396,0C859,789 932,808 988,846C1043,884 1071,951 1071,1047C1071,1155 1031,1228 951,1267z"/><glyph unicode="e" horiz-adv-x="1139" d="M962,903C998,849 1022,786 1034,714C1045,665 1050,586 1050,478l-785,0C268,369 294,282 342,217C390,151 464,118 565,118C659,118 734,149 790,211C822,247 845,289 858,336l177,0C1030,297 1015,253 989,205C962,156 933,117 900,86C845,33 778,-3 697,-22C654,-33 605,-38 550,-38C417,-38 304,11 211,108C118,205 72,340 72,515C72,687 119,827 212,934C305,1041 427,1095 578,1095C654,1095 728,1077 799,1042C870,1006 925,960 962,903M865,621C858,699 841,761 814,808C765,895 682,938 567,938C484,938 415,908 359,849C303,789 273,713 270,621z"/><glyph unicode="f" horiz-adv-x="569" d="M216,1398C258,1459 339,1490 459,1490C470,1490 482,1490 494,1489C506,1488 520,1487 535,1486l0,-164C516,1323 503,1324 495,1325C486,1325 478,1325 471,1325C416,1325 384,1311 373,1283C362,1254 357,1182 357,1066l178,0l0,-142l-180,0l0,-924l-178,0l0,924l-149,0l0,142l149,0l0,168C180,1309 193,1363 216,1398z"/><glyph unicode="i" horiz-adv-x="455" d="M132,1066l183,0l0,-1066l-183,0M132,1469l183,0l0,-204l-183,0z"/><glyph unicode="l" horiz-adv-x="455" d="M137,1469l180,0l0,-1469l-180,0z"/><glyph unicode="o" horiz-adv-x="1139" d="M869,553C869,653 853,734 821,797C770,896 683,945 559,945C449,945 369,903 319,819C269,735 244,634 244,515C244,401 269,306 319,230C369,154 448,116 557,116C676,116 758,161 803,252C847,342 869,442 869,553M1057,558C1057,385 1015,243 931,130C847,17 717,-39 540,-39C393,-39 276,11 189,111C102,210 59,344 59,512C59,692 105,835 196,942C287,1049 410,1102 564,1102C702,1102 819,1056 914,964C1009,872 1057,737 1057,558z"/><glyph unicode="r" horiz-adv-x="682" d="M137,1071l171,0l0,-185C322,922 356,966 411,1018C466,1069 529,1095 600,1095C603,1095 609,1095 617,1094C625,1093 639,1092 658,1090l0,-190C647,902 638,903 629,904C620,905 610,905 599,905C508,905 439,876 390,818C341,759 317,692 317,616l0,-616l-180,0z"/></font><font horiz-adv-x="2048"><!-- Helvetica is a registered trademark of Linotype AG --><!-- Copyright: Copyright 2025 Adobe System Incorporated. All rights reserved. --><font-face font-family="Helvetica-Bold" units-per-em="2048" underline-position="-155" underline-thickness="101"/><missing-glyph horiz-adv-x="1479" d="M154,1474l1187,0l0,-1474l-1187,0M1157,184l0,1106l-819,0l0,-1106z"/><glyph unicode=" " horiz-adv-x="569"/><glyph unicode="0" horiz-adv-x="1139" d="M564,-36C379,-36 250,29 176,158C101,287 64,472 64,711C64,950 101,1135 176,1265C250,1395 379,1460 564,1460C749,1460 878,1395 953,1265C1027,1135 1064,950 1064,711C1064,472 1027,287 953,158C878,29 749,-36 564,-36M731,329C757,417 770,544 770,711C770,886 757,1015 731,1099C704,1183 649,1225 564,1225C479,1225 423,1183 396,1099C369,1015 355,886 355,711C355,544 369,417 396,329C423,240 479,196 564,196C649,196 704,240 731,329z"/><glyph unicode="1" horiz-adv-x="1139" d="M775,0l-292,0l0,1000l-341,0l0,194C232,1198 295,1204 331,1212C388,1225 435,1250 471,1288C496,1314 514,1349 527,1392C534,1418 538,1437 538,1450l237,0z"/><glyph unicode="2" horiz-adv-x="1139" d="M712,1155C678,1196 629,1216 566,1216C479,1216 420,1184 389,1119C371,1082 360,1022 357,941l-277,0C85,1064 107,1164 147,1240C223,1385 358,1457 552,1457C705,1457 827,1415 918,1330C1009,1245 1054,1132 1054,992C1054,885 1022,789 958,706C916,651 847,589 751,521l-114,-81C566,389 517,353 491,330C464,307 442,281 424,251l633,0l0,-251l-993,0C67,104 89,199 131,285C172,382 268,484 419,592C550,686 635,753 674,794C733,857 763,927 763,1002C763,1063 746,1114 712,1155z"/><glyph unicode="3" horiz-adv-x="1139" d="M392,1161C360,1118 345,1061 346,990l-266,0C83,1062 95,1130 117,1195C140,1252 177,1304 227,1352C264,1386 309,1412 360,1430C411,1448 474,1457 549,1457C688,1457 800,1421 885,1350C970,1278 1012,1182 1012,1061C1012,976 987,904 936,845C904,808 871,783 836,770C862,770 899,748 948,703C1021,636 1057,544 1057,427C1057,304 1015,197 930,104C845,11 719,-36 552,-36C347,-36 204,31 124,165C82,236 59,330 54,445l280,0C334,387 343,339 362,301C397,231 460,196 551,196C607,196 656,215 698,254C739,292 760,347 760,419C760,514 721,578 644,610C600,628 531,637 436,637l0,204C529,842 593,851 630,868C693,896 725,953 725,1038C725,1093 709,1138 677,1173C644,1208 599,1225 540,1225C473,1225 423,1204 392,1161z"/><glyph unicode="4" horiz-adv-x="1139" d="M1071,535l0,-223l-164,0l0,-312l-279,0l0,312l-574,0l0,249l533,880l320,0l0,-906M265,535l363,0l0,626z"/><glyph unicode="5" horiz-adv-x="1139" d="M546,720C511,720 481,716 456,707C411,691 378,661 355,618l-256,12l102,801l799,0l0,-242l-593,0l-52,-317C399,901 433,920 458,929C499,944 550,952 609,952C729,952 834,912 923,831C1012,750 1057,633 1057,479C1057,345 1014,225 928,120C842,15 713,-38 542,-38C404,-38 291,-1 202,73C113,147 64,252 54,388l284,0C349,326 371,278 403,245C435,211 482,194 543,194C614,194 668,219 705,269C742,318 760,381 760,456C760,530 743,593 708,644C673,695 619,720 546,720z"/><glyph unicode="6" horiz-adv-x="1139" d="M626,941C755,941 860,897 943,810C1025,723 1066,611 1066,475C1066,340 1026,220 945,117C864,14 739,-38 569,-38C386,-38 252,38 165,191C98,310 64,464 64,653C64,764 69,854 78,923C95,1046 127,1149 175,1231C216,1301 271,1357 338,1400C405,1443 485,1464 578,1464C713,1464 820,1430 900,1361C980,1292 1025,1200 1035,1085l-284,0C751,1108 742,1134 724,1162C693,1207 647,1230 585,1230C492,1230 426,1178 387,1074C366,1017 351,932 343,820C378,862 419,893 466,912C513,931 566,941 626,941M434,669C378,626 350,556 350,459C350,381 371,317 413,268C455,219 508,194 573,194C636,194 686,218 723,266C759,313 777,375 777,451C777,536 756,601 715,646C674,691 623,713 563,713C514,713 471,698 434,669z"/><glyph unicode="7" horiz-adv-x="1139" d="M902,984C826,876 762,765 711,650C670,560 634,450 601,320C568,190 552,83 552,0l-296,0C265,260 350,530 512,811C617,985 704,1106 775,1175l-723,0l4,256l1024,0l0,-223C1037,1166 978,1091 902,984z"/><glyph unicode="8" horiz-adv-x="1139" d="M179,91C96,176 54,280 54,402C54,483 73,557 110,623C147,689 201,739 272,772C202,819 157,869 136,924C115,978 104,1029 104,1076C104,1181 144,1271 223,1346C302,1420 414,1457 559,1457C704,1457 816,1420 895,1346C974,1271 1014,1181 1014,1076C1014,1029 1004,978 983,924C962,869 916,822 846,782C917,742 971,689 1007,623C1043,557 1061,483 1061,402C1061,280 1016,176 926,91C835,5 709,-38 547,-38C385,-38 262,5 179,91M350,421C350,350 369,294 406,255C443,216 494,196 559,196C624,196 676,216 713,255C750,294 768,350 768,421C768,495 749,551 712,590C674,628 623,647 559,647C495,647 444,628 407,590C369,551 350,495 350,421M425,915C457,882 502,865 559,865C617,865 662,882 694,915C725,948 741,991 741,1044C741,1101 725,1146 694,1179C662,1211 617,1227 559,1227C502,1227 457,1211 425,1179C392,1146 376,1101 376,1044C376,991 392,948 425,915z"/><glyph unicode="9" horiz-adv-x="1139" d="M532,-42C423,-42 326,-10 239,55C152,119 103,213 90,336l284,0C381,293 399,259 428,232C457,205 496,192 545,192C639,192 705,244 743,348C764,405 777,489 782,599C756,566 728,541 699,524C646,492 580,476 502,476C387,476 284,516 195,596C106,675 61,790 61,940C61,1095 106,1221 196,1318C285,1414 402,1462 545,1462C766,1462 917,1364 999,1169C1046,1058 1069,913 1069,732C1069,557 1047,410 1002,293C917,70 760,-42 532,-42M432,1183C377,1140 350,1068 350,966C350,880 368,816 403,773C438,730 491,708 564,708C603,708 640,719 675,742C740,783 772,855 772,957C772,1039 753,1104 715,1152C676,1200 624,1224 557,1224C508,1224 467,1210 432,1183z"/><glyph unicode="C" horiz-adv-x="1479" d="M1196,110C1086,9 945,-41 774,-41C562,-41 395,27 274,163C153,300 92,487 92,725C92,982 161,1181 299,1320C419,1441 572,1502 757,1502C1005,1502 1186,1421 1301,1258C1364,1167 1398,1075 1403,983l-308,0C1075,1054 1049,1107 1018,1143C962,1207 879,1239 769,1239C657,1239 569,1194 504,1104C439,1013 407,885 407,720C407,555 441,431 510,349C578,266 665,225 770,225C878,225 960,260 1017,331C1048,369 1074,426 1095,502l305,0C1373,341 1305,211 1196,110z"/><glyph unicode="D" horiz-adv-x="1479" d="M791,0l-635,0l0,1474l635,0C882,1473 958,1462 1019,1442C1122,1408 1206,1346 1270,1255C1321,1182 1356,1102 1375,1017C1394,932 1403,850 1403,773C1403,577 1364,411 1285,275C1178,92 1014,0 791,0M1020,1098C973,1178 879,1218 739,1218l-284,0l0,-962l284,0C884,256 986,328 1043,471C1074,550 1090,643 1090,752C1090,902 1067,1017 1020,1098z"/><glyph unicode="E" horiz-adv-x="1366" d="M1182,644l-716,0l0,-379l816,0l0,-265l-1117,0l0,1474l1081,0l0,-261l-780,0l0,-313l716,0z"/><glyph unicode="K" horiz-adv-x="1479" d="M1462,0l-396,0l-455,644l-147,-151l0,-493l-303,0l0,1474l303,0l0,-607l569,607l398,0l-604,-607z"/><glyph unicode="N" horiz-adv-x="1479" d="M1348,0l-308,0l-602,1047l0,-1047l-287,0l0,1474l323,0l587,-1029l0,1029l287,0z"/><glyph unicode="S" horiz-adv-x="1366" d="M691,213C764,213 823,221 868,237C954,268 997,325 997,408C997,457 976,494 933,521C890,547 823,570 732,590l-156,35C423,660 317,697 258,738C159,806 109,912 109,1057C109,1189 157,1299 253,1386C349,1473 490,1517 676,1517C831,1517 964,1476 1074,1394C1183,1311 1241,1192 1246,1035l-296,0C945,1124 906,1187 834,1224C786,1249 726,1261 655,1261C576,1261 512,1245 465,1213C418,1181 394,1136 394,1079C394,1026 417,987 464,961C494,944 558,923 656,900l254,-61C1021,812 1105,777 1162,732C1250,663 1294,562 1294,431C1294,296 1243,185 1140,96C1037,7 891,-38 703,-38C511,-38 360,6 250,94C140,181 85,302 85,455l294,0C388,388 407,337 434,304C484,243 570,213 691,213z"/><glyph unicode="a" horiz-adv-x="1139" d="M174,972C249,1068 379,1116 562,1116C681,1116 787,1092 880,1045C973,998 1019,908 1019,777l0,-500C1019,242 1020,200 1021,151C1023,114 1029,88 1038,75C1047,62 1061,51 1080,42l0,-42l-310,0C761,22 755,43 752,62C749,81 746,103 744,128C705,85 659,49 608,19C547,-16 477,-34 400,-34C301,-34 220,-6 156,51C91,107 59,187 59,290C59,424 111,521 214,581C271,614 354,637 464,651l97,12C614,670 651,678 674,688C715,705 735,732 735,769C735,814 720,845 689,862C658,879 612,887 552,887C485,887 437,870 409,837C389,812 376,779 369,737l-275,0C100,832 127,911 174,972M386,206C413,184 445,173 484,173C545,173 602,191 654,227C705,263 732,329 734,424l0,106C716,519 698,510 680,503C661,496 636,489 604,483l-64,-12C480,460 437,447 411,432C367,406 345,366 345,311C345,262 359,227 386,206z"/><glyph unicode="e" horiz-adv-x="1139" d="M1066,320C1059,255 1025,190 965,123C872,17 741,-36 573,-36C434,-36 312,9 206,98C100,187 47,333 47,534C47,723 95,867 191,968C286,1069 410,1119 563,1119C654,1119 735,1102 808,1068C881,1034 941,980 988,907C1031,842 1058,767 1071,682C1078,632 1081,560 1080,466l-746,0C338,357 372,280 437,236C476,209 524,195 579,195C638,195 685,212 722,245C742,263 760,288 775,320M784,654C779,729 757,787 716,826C675,865 624,884 563,884C497,884 446,863 410,822C373,781 350,725 341,654z"/><glyph unicode="f" horiz-adv-x="682" d="M644,1483l0,-232C628,1253 601,1255 564,1256C526,1257 500,1248 486,1231C471,1213 464,1193 464,1172l0,-92l187,0l0,-201l-187,0l0,-879l-284,0l0,879l-159,0l0,201l156,0l0,70C177,1267 197,1347 236,1391C277,1456 377,1489 535,1489C553,1489 569,1489 584,1488C599,1487 619,1485 644,1483z"/><glyph unicode="g" horiz-adv-x="1251" d="M441,-191C472,-217 523,-230 596,-230C699,-230 767,-196 802,-127C825,-83 836,-9 836,95l0,70C809,118 779,83 748,60C691,17 618,-5 527,-5C387,-5 275,44 192,143C108,241 66,374 66,542C66,704 106,840 187,951C268,1061 382,1116 530,1116C585,1116 632,1108 673,1091C742,1062 798,1010 841,933l0,157l277,0l0,-1034C1118,-85 1094,-191 1047,-262C966,-385 810,-446 579,-446C440,-446 326,-419 238,-364C150,-309 101,-228 92,-119l310,0C410,-152 423,-176 441,-191M393,372C432,280 501,234 601,234C668,234 724,259 770,310C816,360 839,440 839,550C839,653 817,732 774,786C730,840 671,867 598,867C498,867 429,820 391,726C371,676 361,614 361,541C361,478 372,421 393,372z"/><glyph unicode="h" horiz-adv-x="1251" d="M1118,640l0,-640l-291,0l0,663C827,722 817,769 797,805C771,856 722,881 649,881C574,881 517,856 478,806C439,755 419,683 419,590l0,-590l-284,0l0,1469l284,0l0,-521C460,1011 508,1056 563,1081C617,1106 674,1118 734,1118C801,1118 863,1106 918,1083C973,1060 1018,1024 1053,976C1083,935 1101,894 1108,851C1115,808 1118,737 1118,640z"/><glyph unicode="i" horiz-adv-x="569" d="M426,1090l0,-1090l-289,0l0,1090M426,1483l0,-263l-289,0l0,263z"/><glyph unicode="o" horiz-adv-x="1251" d="M1042,952C1134,837 1180,700 1180,543C1180,383 1134,246 1042,133C950,19 810,-38 623,-38C436,-38 296,19 204,133C112,246 66,383 66,543C66,700 112,837 204,952C296,1067 436,1125 623,1125C810,1125 950,1067 1042,952M622,884C539,884 475,855 430,796C385,737 362,652 362,543C362,434 385,349 430,290C475,231 539,201 622,201C705,201 769,231 814,290C859,349 881,434 881,543C881,652 859,737 814,796C769,855 705,884 622,884z"/><glyph unicode="r" horiz-adv-x="797" d="M681,827C566,827 489,790 450,715C428,673 417,608 417,521l0,-521l-287,0l0,1090l272,0l0,-190C446,973 484,1022 517,1049C570,1094 640,1116 725,1116C730,1116 735,1116 739,1116C742,1115 750,1115 763,1114l0,-292C745,824 729,825 715,826C701,827 690,827 681,827z"/><glyph unicode="s" horiz-adv-x="1139" d="M884,1040C969,985 1018,891 1031,758l-285,0C742,795 732,824 715,845C684,884 630,903 555,903C493,903 449,893 423,874C396,855 383,832 383,806C383,773 397,750 425,735C453,720 552,693 722,656C835,629 920,589 977,535C1033,480 1061,412 1061,330C1061,222 1021,134 941,66C860,-3 736,-37 568,-37C397,-37 270,-1 189,72C107,144 66,236 66,348l289,0C361,297 374,261 394,240C429,202 495,183 590,183C646,183 691,191 724,208C757,225 773,250 773,283C773,315 760,339 733,356C706,373 607,401 436,442C313,473 226,511 175,557C124,602 99,668 99,753C99,854 139,940 218,1013C297,1085 408,1121 551,1121C687,1121 798,1094 884,1040z"/><glyph unicode="t" horiz-adv-x="682" d="M632,203l0,-213l-135,-5C362,-20 270,4 221,55C189,88 173,138 173,206l0,671l-152,0l0,203l152,0l0,304l282,0l0,-304l177,0l0,-203l-177,0l0,-576C455,256 461,229 472,218C483,207 518,201 576,201C585,201 594,201 604,202C613,202 623,202 632,203z"/><glyph unicode="v" horiz-adv-x="1139" d="M26,1090l320,0l227,-804l232,804l306,0l-393,-1090l-301,0z"/><glyph unicode="®" horiz-adv-x="1509" d="M1284,1258C1428,1114 1500,940 1500,737C1500,528 1426,351 1279,208C1136,69 964,0 763,0C556,0 381,71 239,213C97,355 26,530 26,737C26,952 103,1131 256,1274C400,1407 569,1474 763,1474C966,1474 1140,1402 1284,1258M763,1348C594,1348 449,1287 330,1164C213,1044 154,902 154,737C154,566 214,421 333,302C452,183 595,123 763,123C930,123 1073,183 1192,303C1311,424 1370,568 1370,737C1370,901 1311,1043 1193,1164C1074,1287 930,1348 763,1348M654,616l0,-289l-214,0l0,817C491,1144 567,1144 668,1144C769,1143 825,1143 836,1142C901,1137 954,1123 997,1100C1070,1060 1106,995 1106,905C1106,836 1087,787 1049,756C1010,725 963,707 907,701C958,690 997,675 1023,654C1071,615 1095,554 1095,471l0,-73C1095,390 1096,382 1097,374C1098,366 1099,358 1102,350l7,-23l-204,0C898,353 894,391 892,440C890,489 886,523 879,540C868,569 848,589 819,600C803,607 779,611 746,613l-47,3M737,763C787,763 826,773 854,793C882,813 896,845 896,890C896,935 874,966 830,983C801,994 759,1000 706,1000l-52,0l0,-237z"/></font>
</svg>
